Loading...

BalkanHarbor

Torrent file-share

Torrent detail

Supergirl S01E09 HDTV x264-LOL[rartv]

Mediainfo :

Video
ID : 1
Format : AVC
Format/Info : Advanced Video Codec
Format profile : [email protected]
Format settings, CABAC : Yes
Format settings, ReFrames : 5 frames
Codec ID : avc1
Codec ID/Info : Advanced Video Coding
Duration : 44mn 30s
Bit rate : 729 Kbps
Maximum bit rate : 2 523 Kbps
Width : 720 pixels
Height : 404 pixels
Display aspect ratio : 16:9
Frame rate mode : Constant
Frame rate : 23.976 (24000/1001) fps
Color space : YUV
Chroma subsampling : 4:2:0
Bit depth : 8 bits
Scan type : Progressive
Bits/(Pixel*Frame) : 0.105
Stream size : 232 MiB (85%)
Writing library : x264 core 148 r2638 7599210
Encoding settings : cabac=1 / ref=5 / deblock=1:1:1 / analyse=0x3:0x133 / me=umh / subme=9 / psy=1 / psy_rd=1.00:0.00 / mixed_ref=1 / me_range=16 / chroma_me=1 / trellis=2 / 8x8dct=1 / cqm=0 / deadzone=21,11 / fast_pskip=1 / chroma_qp_offset=-2 / threads=13 / lookahead_threads=1 / sliced_threads=0 / nr=0 / decimate=1 / interlaced=0 / bluray_compat=0 / constrained_intra=0 / bframes=3 / b_pyramid=2 / b_adapt=2 / b_bias=0 / direct=3 / weightb=1 / open_gop=0 / weightp=2 / keyint=250 / keyint_min=23 / scenecut=40 / intra_refresh=0 / rc_lookahead=60 / rc=crf / mbtree=1 / crf=19.0 / qcomp=0.60 / qpmin=0 / qpmax=69 / qpstep=4 / ip_ratio=1.40 / aq=1:1.00
Encoded date : UTC 2016-01-04 21:24:27
Tagged date : UTC 2016-01-04 21:35:28
Color range : Limited
Matrix coefficients : BT.709

Audio
ID : 2
Format : AAC
Format/Info : Advanced Audio Codec
Format profile : LC
Codec ID : 40
Duration : 44mn 30s
Bit rate mode : Variable
Bit rate : 123 Kbps
Maximum bit rate : 149 Kbps
Channel(s) : 2 channels
Channel positions : Front: L R
Sampling rate : 48.0 KHz
Frame rate : 46.875 fps (1024 spf)
Compression mode : Lossy
Stream size : 39.3 MiB (14%)
Encoded date : UTC 2016-01-04 21:35:28
Tagged date : UTC 2016-01-04 21:35:28

http://imagecurl.org/v/78411326048690398486/

Torrent name: Supergirl S01E09 HDTV x264-LOL[rartv]
File size: 272.6 MB
Seeds: 10410
Leechs: 995
Categories: Series
Uploader: CyberBalkan
    - udp://tracker.coppersurfer.tk:6969/announce
    - udp://tracker.openbittorrent.com:80/announce
    - udp://glotorrents.pw:6969/announce
    - udp://tracker.publicbt.com:80/announce
    - http://tracker.trackerfix.com/announce
    - udp://tracker.opentrackr.org:1337/announce
    - udp://9.rarbg.me:2710/announce
    - udp://9.rarbg.to:2710/announce
Download Supergirl S01E09 HDTV x264-LOL[rartv]
Download .torrent
Stats

Total Members: 4611 | Total Torrents: 582 | Total Peers: 2